Let's Dance ( (2009) 1 Cd Dvd Rip [TG]

  • Category Movies
  • Type Divx/Xvid
  • Language Hindi
  • Total size 670.4 MB
  • Uploaded By rsy007
  • Downloads 15
  • Last checked 1 day ago
  • Date uploaded 4 years ago
  • Seeders 0
  • Leechers 0

Infohash : 406DEAF4166E979D66003F8C196DFD3342E5CA32

Let's Dance ( (2009) 1 Cd Dvd Rip [TG]





Storyline:

A dance teacher struggles to bring fame to herself and her group of young dancers. .


Genres:Crime | Drama | Musical
Country: India
Language: Hindi
Release Date: 19 June 2009 (India)


Media Information:


Complete name : Let's Dance ( (2009) 1 Cd Dvd Rip [TG]

Format : AVI
Format/Info : Audio Video Interleave
File size : 670 MiB
Duration : 1h 57mn
Overall bit rate : 796 Kbps
Writing application : MEncoder SVN-r29347-snapshot-4.1.2
Writing library : MPlayer

Video
ID : 0
Format : MPEG-4 Visual
Format profile : Advanced [email protected]
Format settings, BVOP : 2
Format settings, QPel : No
Format settings, GMC : No warppoints
Format settings, Matrix : Default (H.263)
Codec ID : XVID
Codec ID/Hint : XviD
Duration : 1h 57mn
Bit rate : 703 Kbps
Width : 640 pixels
Height : 272 pixels
Display aspect ratio : 2.35:1
Frame rate : 23.976 fps
Color space : YUV
Chroma subsampling : 4:2:0
Bit depth : 8 bits
Scan type : Progressive
Compression mode : Lossy
Bits/(Pixel*Frame) : 0.169
Stream size : 593 MiB (88%)
Writing library : XviD 1.3.0.dev55

Audio
ID : 1
Format : MPEG Audio
Format version : Version 1
Format profile : Layer 3
Mode : Joint stereo
Mode extension : MS Stereo
Codec ID : 55
Codec ID/Hint : MP3
Duration : 1h 57mn
Bit rate mode : Constant
Bit rate : 32.0 Kbps
Channel(s) : 2 channels
Sampling rate : 48.0 KHz
Compression mode : Lossy
Stream size : 66.9 MiB (10%)
Alignment : Aligned on interleaves
Interleave, duration : 24 ms (0.58 video frame)
Interleave, preload duratio : 203 ms
Writing library : LAME3.98.2




Screenshot:




Seedbox seeding 24x7 @ 1Gbps






Note : Please try to seed as much as you can since "sharing brings joy" !

Files:

  • Let's Dance ( (2009) 1 Cd Dvd Rip [TG].avi (670.4 MB)
Thanks
  • Thanks.jpg (73.1 KB)
  • Torrent download from www.torrentgarden.com.txt (0.7 KB)
  • Join Us Face Book.txt (0.6 KB)
  • Seeding Powered by www.ultraseedbox.com.txt (0.2 KB)
  • Torrent Download Chillnmasty.com.txt (0.1 KB)

There are currently no comments. Feel free to leave one :)

Code:

  • udp://tracker.openbittorrent.com:80/announce
  • udp://tracker.publicbt.com:80/announce
  • udp://tracker.ccc.de:80/announce
  • http://exodus.desync.com:6969/announce
  • udp://tracker.publicbt.com:80/announce
  • udp://tracker.openbittorrent.com:80/announce
  • udp://tracker.istole.it:80/announce
  • udp://coppersurfer.tk:6969/announce
  • udp://tracker.token.ro:80/announce
  • udp://t1.pow7.com:80/announce
  • udp://tracker.zond.org:80/announce
  • udp://9.rarbg.com:2710/announce
  • udp://9.rarbg.me:2710/announce
SitemapUma Ressaca de 9 Meses Com├ędia / Romance 2018 1080p / 720p / Bluray / Full HD / HD Filmes Torrent | Gyakko no Koro (The Time of Backlights) Live Action (2017) | Powersports