Shaolin Basket (2008) DvDRip XviD Hindi Dubbed [TG]

  • Category Movies
  • Type Divx/Xvid
  • Language Hindi
  • Total size 527.1 MB
  • Uploaded By rsy007
  • Downloads 255
  • Last checked 8 months ago
  • Date uploaded 4 years ago
  • Seeders 0
  • Leechers 0

Kung Fu Dunk

ActionAdventureComedySports Film

Shi-Jie is a brilliant martial artist from the Kung Fu School. One day, he encounters a group of youths playing basketball and shows off how easy it is for him, with his martial arts training, to do a Slam Dunk. Watching him was Chen-Li, a shrewd businessman, who recruits him to play varsity basketball at the local university.

Infohash : B566B82CF08E94E54F5F5FD7B214463694AC869B

Shaolin Basket (2008) DvDRip XviD Hindi Dubbed [TG]





Storyline:

Fang Shijie is found as a baby in the garbage and raised at a martial arts academy. With the help of a man, he gets into college and is promoted to the basketball championship as he searches for his real parents.

.



Genres:Comedy | Sport
Country: India
Language: Hindi
Release Date:7 February 2008 (Hong Kong)


Media Information:


Complete name : Shaolin Basket (2008) DvDRip XviD Hindi Dubbed [TG]


Format : AVI
Format/Info : Audio Video Interleave
File size : 527 MiB
Duration : 1h 37mn
Overall bit rate mode : Variable
Overall bit rate : 759 Kbps
Writing application : MEncoder 2:1.0~rc2-0ubuntu19+medibuntu1
Writing library : MPlayer

Video
ID : 0
Format : MPEG-4 Visual
Format profile : Advanced [email protected]
Format settings, BVOP : 2
Format settings, QPel : No
Format settings, GMC : No warppoints
Format settings, Matrix : Default (H.263)
Codec ID : XVID
Codec ID/Hint : XviD
Duration : 1h 37mn
Bit rate : 667 Kbps
Width : 608 pixels
Height : 288 pixels
Display aspect ratio : 2.111
Frame rate : 25.000 fps
Color space : YUV
Chroma subsampling : 4:2:0
Bit depth : 8 bits
Scan type : Progressive
Compression mode : Lossy
Bits/(Pixel*Frame) : 0.152
Stream size : 463 MiB (88%)
Writing library : XviD 1.2.1 (UTC 2008-12-04)

Audio
ID : 1
Format : MPEG Audio
Format version : Version 1
Format profile : Layer 3
Mode : Joint stereo
Mode extension : MS Stereo
Codec ID : 55
Codec ID/Hint : MP3
Duration : 1h 37mn
Bit rate mode : Variable
Bit rate : 80.0 Kbps
Channel(s) : 2 channels
Sampling rate : 32.0 KHz
Compression mode : Lossy
Stream size : 56.5 MiB (11%)
Alignment : Aligned on interleaves
Interleave, duration : 36 ms (0.90 video frame)
Interleave, preload duratio : 417 ms
Writing library : LAME3.98




Screenshot:




Seedbox seeding 24x7 @ 1Gbps






Note : Please try to seed as much as you can since "sharing brings joy" !

Files:

  • Shaolin Basket (2008) DvDRip XviD Hindi Dubbed.avi (527.0 MB)
Thanks
  • Thanks.jpg (73.1 KB)
  • Torrent download from www.torrentgarden.com.txt (0.7 KB)
  • Join Us Face Book.txt (0.6 KB)
  • Seeding Powered by www.ultraseedbox.com.txt (0.2 KB)
  • Torrent Download Chillnmasty.com.txt (0.1 KB)

There are currently no comments. Feel free to leave one :)

Code:

  • udp://tracker.openbittorrent.com:80/announce
  • udp://tracker.publicbt.com:80/announce
  • udp://tracker.ccc.de:80/announce
  • http://exodus.desync.com:6969/announce
  • udp://tracker.publicbt.com:80/announce
  • udp://tracker.openbittorrent.com:80/announce
  • udp://tracker.istole.it:80/announce
  • udp://coppersurfer.tk:6969/announce
  • udp://tracker.token.ro:80/announce
  • udp://t1.pow7.com:80/announce
  • udp://tracker.zond.org:80/announce
  • udp://9.rarbg.com:2710/announce
  • udp://9.rarbg.me:2710/announce
SitemapVeera Bhoga Vasantha Rayalu (2018) Telugu HDRip x264 Mp3 by india4movies mkv | Miniature Unpainted Wooden Door Window Furniture DIY Decor for 1/12 Dolls House | Recommendation