[AnimeRG] Fairy Tail S2 - 39 (214) [Eng Subbed] [SD] [JRR].mp4

  • Category Anime
  • Type Anime
  • Language Japanese
  • Total size 58.9 MB
  • Uploaded By JRRstudios
  • Downloads 41
  • Last checked 8 hours ago
  • Date uploaded 4 years ago
  • Seeders 0
  • Leechers 1

Infohash : 2A7E2A1274C385D30A56441B5F7F11CB128033AC

General
Format : MPEG-4
File size : 58.9 MiB
Duration : 24mn 24s
Overall bit rate mode : Variable
Overall bit rate : 337 Kbps

Video
Format : AVC
Format/Info : Advanced Video Codec
Format profile : [email protected]
Bit rate : 236 Kbps
Width : 640 pixels
Height : 360 pixels
Display aspect ratio : 16:9
Frame rate : 23.976 fps
Bit depth : 8 bits
Stream size : 41.2 MiB (70%)

Audio
Format : AAC
Bit rate : 96.0 Kbps
Channel(s) : 2 channels
Sampling rate : 44.1 KHz
Compression mode : Lossy
Stream size : 16.8 MiB (28%)

Subtitles
Language : English
Source : CrunchyRoll
Type : Hard-Coded

Screens


Files:

  • [AnimeRG] Fairy Tail S2 - 39 (214) [Eng Subbed] [SD] [JRR].mp4 (58.9 MB)

There are currently no comments. Feel free to leave one :)

Code:

  • udp://open.nyaatorrents.info:6544/announce
  • udp://tracker.publicbt.com:80/announce
  • udp://tracker.openbittorrent.com:80/announce
  • udp://tracker.istole.it:80/announce
  • udp://tracker.glotorrents.com:6969/announce
  • udp://open.demonii.com:1337/announce
  • udp://tracker.yify-torrents.com:80/announce
  • udp://open.demonii.com:1337/announce
  • udp://tracker.publichd.eu:80/announce
  • udp://coppersurfer.tk:6969/announce
  • udp://11.rarbg.com/announce
SitemapThe Fatal Mission | Gemma Whelan | Read more