Stag 2013 DVDRip XViD AC3-BL4CKP34RL

  • Category Movies
  • Type DVD
  • Language English
  • Total size 1.3 GB
  • Uploaded By TheKNIGHTSRG
  • Downloads 61
  • Last checked 3 months ago
  • Date uploaded 4 years ago
  • Seeders 0
  • Leechers 0

Stag

Comedy

Ken Andrews (Faison) has been the orchestrator of the hazing pranks at all of his buddies' stags - elaborate, hilarious pranks that have left many emotional scars and a few physical ones. And now today is Ken's stag! He nervously awaits the fate that his pals surely have in store for him, comforted only by the knowledge that Carl (Pat Thornton) will be there to watch his back. That is, so long as Carl can extract himself from the Hollywood celebrity, Veronica (Amurri). Ken will soon discover that payback is worse than he could ever imagine. Written by Brett Heard

Infohash : FED04BCDA90C0FEB9929FD2AE99500C522A86419

Fine Release Brought to you from - BL4CKP34RL


******************************************************************************************
Stag.2013.DVDRip.XViD.AC3-BL4CKP34RL
******************************************************************************************

Ripper ...........: J4CKSP4RR0W IMDB Rating.......: 4.0/10
Video Codec.......: XViD Release Date......: 3 March 2014
Audio Codec.......: AC3 Theatre Date......: 20 August 2013
Audio Bitrate.....: 448 kbps Runtime...........: 1hr 20min 29sec
Subtitles.........: na Language..........: ENGLISH
Resolution........: 720x400 IMDb URL..........: http://www.imdb.com/title/tt1821617/


DETAILS:


Format : AVI
Format/Info : Audio Video Interleave
File size : 1.24 GiB
Duration : 1h 20mn
Overall bit rate : 2 207 Kbps
Writing library : VirtualDub build 13719/release

Video
ID : 0
Format : MPEG-4 Visual
Format profile : Advanced [email protected]
Format settings, BVOP : 2
Format settings, QPel : No
Format settings, GMC : No warppoints
Format settings, Matrix : Default (H.263)
Codec ID : XVID
Codec ID/Hint : XviD
Duration : 1h 20mn
Bit rate : 1 750 Kbps
Width : 720 pixels
Height : 400 pixels
Display aspect ratio : 16:9
Frame rate : 25.000 fps
Color space : YUV
Chroma subsampling : 4:2:0
Bit depth : 8 bits
Scan type : Progressive
Compression mode : Lossy
Bits/(Pixel*Frame) : 0.243
Stream size : 1 007 MiB (79%)
Writing library : XviD 1.2.1 (UTC 2008-12-04)

Audio
ID : 1
Format : AC-3
Format/Info : Audio Coding 3
Mode extension : CM (complete main)
Format settings, Endianness : Big
Codec ID : 2000
Duration : 1h 20mn
Bit rate mode : Constant
Bit rate : 448 Kbps
Channel(s) : 6 channels
Channel positions : Front: L C R, Side: L R, LFE
Sampling rate : 48.0 KHz
Bit depth : 16 bits
Compression mode : Lossy
Delay relative to video : 250ms
Stream size : 258 MiB (20%)
Alignment : Split accross interleaves
Interleave, duration : 40 ms (1.00 video frame)









SOURCES:



VIDEO: ............. stag dvd 9 parkiet ...thanks
AUDIO: ............. stag dvd 9 parkiet ...thanks

NOTES:

Made a script to resize, slight and we mean slight denoise, then sharpened it back up a touch and remuxed the 5.1 AC3 to it :)


SCREENS:










GREETS:


To those that deserve it.. You know who you are


Looking for not a damn thing

Files:

  • sample.avi (20.6 MB)
  • Torrent Download from SilverTorrent.ORG.txt (0.0 KB)
  • Stag.2013.DVDRip.XViD.AC3-BL4CKP34RL.avi (1.2 GB)
  • BL4CKP34RL.nfo (4.1 KB)

There are currently no comments. Feel free to leave one :)

Code:

  • udp://open.demonii.com:1337
  • http://exodus.desync.com:6969/announce
  • udp://9.rarbg.me:2710/announce
  • udp://9.rarbg.com:2710/announce
  • udp://tracker.yify-torrents.com/announce
  • udp://tracker.publichd.eu/announce
  • udp://tracker.openbittorrent.com:80
  • udp://tracker.publicbt.com:80/announce
  • udp://tracker.zond.org:80/announce
  • udp://tracker.prq.to/announce
  • udp://t1.pow7.com:80/announce
  • udp://tracker.token.ro:80/announce
  • udp://10.rarbg.com/announce
  • udp://coppersurfer.tk:6969/announce
  • udp://tracker.istole.it:80/announce
SitemapDark.Sister.2018.HDRip.AC3.X264-CMRG[TGx] | Facebook | Volkswagen ( VW ) Kever ( Beetle) Cabriolet 1979 black with black top