Non-Stop 2014 New Source HDCAM x264 AC3 TiTAN

  • Category Movies
  • Type h.264/x264
  • Language English
  • Total size 1.1 GB
  • Uploaded By TheKNIGHTSRG
  • Downloads 922
  • Last checked 3 months ago
  • Date uploaded 4 years ago
  • Seeders 0
  • Leechers 0

Non-Stop

ActionMysteryThriller

Bill Marks is a burned-out veteran of the Air Marshals service. He views the assignment not as a life-saving duty, but as a desk job in the sky. However, today's flight will be no routine trip. Shortly into the transatlantic journey from New York to London, he receives a series of mysterious text messages ordering him to have the government transfer $150 million into a secret account, or a passenger will die every 20 minutes.

Infohash : 6873562FABC46CB487508EFFDDDB2695428CBB1F

Source: Matine(THX)/Our Audio

Note: Nice new clean source cam.. no frame issues with this cam, but audio was not very good so took our audio and muxed to there vid.. and wala damn nice cam.. Enjoy

General

Format : Matroska
Format version : Version 2
File size : 1.12 GiB
Duration : 1h 40mn
Overall bit rate mode : Variable
Overall bit rate : 1 604 Kbps
Encoded date : UTC 2014-03-04 14:59:58
Writing application : mkvmerge v6.5.0 ('Isn't she lovely') built on Oct 20 2013 12:50:05
Writing library : libebml v1.3.0 + libmatroska v1.4.1

Video
ID : 1
Format : AVC
Format/Info : Advanced Video Codec
Format profile : [email protected]
Format settings, CABAC : Yes
Format settings, ReFrames : 3 frames
Codec ID : V_MPEG4/ISO/AVC
Duration : 1h 40mn
Bit rate mode : Variable
Bit rate : 1 380 Kbps
Maximum bit rate : 40.0 Mbps
Width : 720 pixels
Height : 320 pixels
Display aspect ratio : 2.25:1
Frame rate mode : Constant
Frame rate : 25.000 fps
Color space : YUV
Chroma subsampling : 4:2:0
Bit depth : 8 bits
Scan type : Progressive
Bits/(Pixel*Frame) : 0.240
Stream size : 989 MiB (86%)
Writing library : x264 core 140 r2377 1ca7bb9
Default : Yes
Forced : No
Color primaries : BT.709
Transfer characteristics : BT.709
Matrix coefficients : BT.709

Audio
ID : 2
Format : AC-3
Format/Info : Audio Coding 3
Mode extension : CM (complete main)
Format settings, Endianness : Big
Codec ID : A_AC3
Duration : 1h 40mn
Bit rate mode : Constant
Bit rate : 192 Kbps
Channel(s) : 2 channels
Channel positions : Front: L R
Sampling rate : 44.1 KHz
Bit depth : 16 bits
Compression mode : Lossy
Stream size : 138 MiB (12%)
Default : Yes
Forced : No









Files:

  • Torrent Download from SilverTorrent.org.txt (0.1 KB)
  • Non-Stop 2014 New Source HDCAM x264 AC3 TiTAN.nfo (3.5 KB)
  • Non-Stop 2014 New Source HDCAM x264 AC3 TiTAN.mkv (1.1 GB)

There are currently no comments. Feel free to leave one :)

Code:

  • udp://tracker.publicbt.com:80/announce
  • udp://9.rarbg.com:2710/announce
  • udp://10.rarbg.com:80/announce
  • udp://11.rarbg.com:80/announce
  • udp://12.rarbg.me:80/announce
  • udp://tracker.openbittorrent.com:80/announce
  • udp://tracker.istole.it:80/announce
  • udp://t1.pow7.com:80/announce
  • udp://tracker.pow7.com:80/announce
  • udp://ipv4.tracker.harry.lu:80/announce
  • udp://open.demonii.com:1337/announce
SitemapMercedes-Benz E200 W124 | 家族之苦3 蔷薇之妻 What a Wonderful Family III My Wife My Life 2018 1... | Pal Javed Mohsin Arijit Singh Shreya Ghoshal Mp3